Авторизация
Зарегистрироваться

Двухкамерный видеорегистратор TrendVision Proof

  • Цена: 4790 руб (~64$)

Сегодня посмотрим на видеорегистратор TrendVision Proof с двумя камерами в небольшом корпусе. Дорожную ситуацию записывает FHD камера, а в салон обращена камера HD. Proof переводится как доказательство, двухканальная запись пригодится водителям такси, каршеринга и другого коммерческого транспорта.


Характеристики:
Дисплей: 1.5 дюйма LCD, 320×240
Процессор: Jieli JL5401B
Сенсор: GC2053
G-сенсор: Есть
Угол обзора: 170°
Рабочая температура: от –35°С до +55°С
Циклическая запись: Есть
Фронтальная камера: Full HD 1920×1080 (30 к/с)
Вторая камера: HD 1280×720 (30 к/с)
Датчик движения: Есть
Режим парковки: Есть
Стабилизатор изображения: Есть
Защита файла от перезаписи: Есть
Автостарт записи: Есть
Micro SD: до 32 ГБ (10 класс)
Аккумуляторная батарея: Встроенная литий-полимерная 150 мА·ч
Размеры, масса: 113×37×30 мм, 85 г.

Поставляется устройство в картонной коробке с полиграфией:

Изготовлен регистратор в Китае. Гарантия 12 мес.
Открываем:

Регистратор находится во вставке из защитного материала. Под ней остальной комплект.
Комплектация:

Видеорегистратор, блок питания, крепление на стекло на присоске, документация.
Блок питания от 12-24 В выдает 5 В 1,5 А:

Длины кабеля 3,5 м хватит для скрытой проводки под обшивкой салона автомобиля. Но вот угловой разъем питания устаревшего типа — мини usb.
Инструкция на русском языке:

Крепление на ветровое стекло — вакуумная присоска с регулировкой:

Регулировка положения в двух плоскостях.

Внешний вид Proof:

Компактный вытянутый корпус размерами 112х36х35 мм. Пластиковый, кроме декоративной сеточки для вентиляции. Можно скрытно установить или носить с собой в кармане. Из дизайнерских изысков — серебристая полоска, разделяющая функциональные блоки регистратора.
Питание устройства происходит не только от бортовой сети автомобиля, но и от встроенного небольшого аккумулятора, которого хватает на минуту работы. Возможно, вариант питания от ионистора «суперконденсатора» был бы долговечнее.
Обратная сторона, обращенная к водителю:

Тут расположен очень маленький экранчик (размеры 30х23 мм) и камера, записывающая салон, оснащенная четырьмя ИК диодами подсветки. Микрофон слева от дисплея.
Вторая камера поворачивается на 250 градусов:

Если закрепить регистратор на ветровое стекло, то первое положение, когда вторая камера смотрит на дорогу, второе — вниз салона. Вращается достаточно туго с легкими щелчками.
Верх-низ корпуса:

Кнопки управления внизу, но подписаны под экраном, что логично. Сверху разъем для питания устройства.
С боков:

Все сосредоточено в левом торце: слот под карту микро SD, индикатор и кнопка перезагрузки.
С креплением:

регистратор снимается с крепления движением в бок.
Масса устройства:

Потребление регистратором тока при записи:

Меню регистратора:

Есть датчик удара (G sensor) — функция, позволяющая в случае внешнего воздействия на автомобиль моментально записывать видео в защищенную от удаления и перезаписи папку.

При подключении устройства к компьютеру есть выбор режима работы:


Устанавливаем Proof в автомобиль.
Заставка:

при запуске звучит короткая, но громкая мелодия. Если установлена карта памяти, запись видео начнется автоматически.
Смотрится регистратор довольно компактно:

Цвета на экране передаются блекло, но с этим можно мериться, экран тут для галочки — настроить в начале и показать что регистратор ведет запись.

Так как съемка ведется в двухканальном режиме, файлы записываются на карту памяти в две папки 1 и 2.

Основная камера:

Параметры файла
Полное имя: *.MOV
Формат: MPEG-4
Профиль формата: QuickTime
Идентификатор кодека: qt 2016.04.21 (qt )
Размер файла: 110 Мбайт
Продолжительность: 1 м. 0 с.
Общий поток: 15,4 Мбит/сек

Видео
Идентификатор: 1
Формат: AVC
Формат/Информация: Advanced Video Codec
Профиль формата: Main@L4.1
Настройки формата: CABAC / 1 Ref Frames
Параметр CABAC формата: Да
Параметр RefFrames формата: 1 кадр
Параметр GOP формата: M=1, N=32
Идентификатор кодека: avc1
Идентификатор кодека/Информация: Advanced Video Coding
Продолжительность: 1 м. 0 с.
Продолжительность оригинала: 59 с. 400 мс.
Битрейт: 14,7 Мбит/сек
Ширина: 1 920 пикселей
Высота: 1 080 пикселей
Соотношение сторон: 16:9
Режим частоты кадров: Постоянный
Частота кадров: 27,273 кадров/сек
Цветовое пространство: YUV
Субдискретизация насыщенности: 4:2:0
Битовая глубина: 8 бит
Тип развёртки: Прогрессивная
Бит/(Пиксели*Кадры): 0.259
Размер потока: 105 Мбайт (95%)
Размер потока оригинала: 103 Мбайт (93%)
Язык: Chinese (China)
mdhd_Duration: 60000
Codec configuration box: avcC

Аудио
Идентификатор: 2
Формат: PCM
Настройки формата: Little / Signed
Идентификатор кодека: sowt
Продолжительность: 1 м. 0 с.
Продолжительность оригинала: 58 с. 880 мс.
Вид битрейта: Постоянный
Битрейт: 128 Кбит/сек
Каналы: 1 канал
Channel layout: C
Частота: 8 000 Гц
Битовая глубина: 16 бит
Размер потока: 938 Кбайт (1%)
Размер потока оригинала: 920 Кбайт (1%)
Язык: Chinese (China)
Default: Да
Alternate group: 1

Остальные примеры на яндекс диск в оригинале (сервис youtube.com влияет на качество ролика):
Город днем
Ночная съемка
Трасса
Все ролики по 1 мин, формат MOV, весят по 110 Мб.

Камера в салон (звук):

Параметры файла
Полное имя: *.MOV
Формат: MPEG-4
Профиль формата: QuickTime
Идентификатор кодека: qt 2016.04.21 (qt )
Размер файла: 62,9 Мбайт
Продолжительность: 1 м. 0 с.
Общий поток: 8 800 Кбит/сек

Видео
Идентификатор: 1
Формат: AVC
Формат/Информация: Advanced Video Codec
Профиль формата: Main@L3.2
Настройки формата: CABAC / 1 Ref Frames
Параметр CABAC формата: Да
Параметр RefFrames формата: 1 кадр
Параметр GOP формата: M=1, N=32
Режим смешивания: Container profile=Main@4.1
Идентификатор кодека: avc1
Идентификатор кодека/Информация: Advanced Video Coding
Продолжительность: 1 м. 0 с.
Битрейт: 8 015 Кбит/сек
Ширина: 1 280 пикселей
Высота: 720 пикселей
Соотношение сторон: 16:9
Режим частоты кадров: Постоянный
Частота кадров: 30,000 кадров/сек
Цветовое пространство: YUV
Субдискретизация насыщенности: 4:2:0
Битовая глубина: 8 бит
Тип развёртки: Прогрессивная
Бит/(Пиксели*Кадры): 0.290
Размер потока: 57,3 Мбайт (91%)
Язык: Chinese (China)
Codec configuration box: avcC

Аудио
Идентификатор: 2
Формат: PCM
Настройки формата: Little / Signed
Идентификатор кодека: sowt
Продолжительность: 1 м. 0 с.
Продолжительность оригинала: 1 м. 0 с.
Вид битрейта: Постоянный
Битрейт: 128 Кбит/сек
Каналы: 1 канал
Channel layout: C
Частота: 8 000 Гц
Битовая глубина: 16 бит
Размер потока: 938 Кбайт (1%)
Размер потока оригинала: 952 Кбайт (1%)
Язык: Chinese (China)
Default: Да
Alternate group: 1

Оригинал:
Днем в салон

Ночью с ИК подсветкой снимает примерно так:


Съемка ночью основной камерой не впечатлила. Матрица пересвечивается, номерные знаки не читаются. К салонной камере претензий нет.
Положительные моменты: компактность, датчик удара, который ставят в более дорогие модели и режим записи на парковке (но при этом необходимо внешнее питание).
Днем качество записи устройства вполне годится для использования в качестве доказательной базы в спорных дорожных ситуациях.

Спасибо за внимание. Удачных покупок!


Товар предоставлен для написания обзора магазином. Обзор опубликован в соответствии с п.18 Правил сайта.
Планирую купить +10 Добавить в избранное +65 +72
свернуть развернуть
Комментарии (21)
RSS
+
avatar
  • bullet
  • 01 февраля 2021, 11:10
+12
Регистратор для таксиста.
+
avatar
  • Boor
  • 01 февраля 2021, 15:00
+3
Дык ТС так и пишет:
Proof переводится как доказательство, двухканальная запись пригодится водителям такси
И тут как раз скорее важна камера в салон, чем на дорогу...)
+
avatar
  • AGN
  • 01 февраля 2021, 12:04
+7
Что-то как-то картинка не очень.
+
avatar
  • magnum_s
  • 01 февраля 2021, 12:20
+4
Это Вы очень мягко сказали. Картинка очень не очень. За 30 баксов бы взял.
+
avatar
  • bdos
  • 06 февраля 2021, 11:48
0
может на али подобное и есть
+
avatar
  • rust17
  • 01 февраля 2021, 12:52
+2
Основная матрица может быть и честная, но сжатие — безобразное. Скорее всего центральный процессор не справляется с двумя потоками.
+
avatar
  • bdos
  • 01 февраля 2021, 14:45
0
Вторую камеру нельзя отключить
+
avatar
  • falcon99
  • 01 февраля 2021, 13:09
+7
Аккумуляторная батарея: Встроенная литий-полимерная 150 мА·ч
Отказать. Независимо от емкости. Только ионисторы, задолбался менять аккумуляторы каждые 2 года.
+
avatar
  • bdos
  • 01 февраля 2021, 13:27
0
В более дорогих моделях
+
avatar
  • falcon99
  • 01 февраля 2021, 13:53
+4
Спасибо, За эти деньги лучше куплю viofo. Особенно после прочтения отзывов на поделия данного «бренда».
Например этого.
+
avatar
  • SilentF
  • 01 февраля 2021, 16:27
0
Ионистор ионистору рознь. У меня регик сбрасывает дату если 2-3 дня не заводить машину.
+
avatar
  • Rider_59
  • 01 февраля 2021, 13:41
+3
Давно пора записывать в H.265/
Можно купить какую-нибудь камеру видеонаблюдения с таким кодеком, с SD-картой и Wi-Fi, с матрицей на 5Мп, только она будет без экрана, и вид у неё будет как у камеры видеонаблюдения :) В остальном — одни плюсы
+
avatar
  • bdos
  • 01 февраля 2021, 15:15
+5
+
avatar
  • Lvenok
  • 01 февраля 2021, 18:11
+2
Смотрю сейчас броневики с инкассации в продаже, там это нормальное явление…
+
avatar
  • sledur
  • 03 февраля 2021, 15:10
0
Видео вперед днем, вроде ничего качество, а ночное может параметры поменять? И почему салонная камера зеркалит изображение?
+
avatar
  • bdos
  • 03 февраля 2021, 21:14
0
И почему салонная камера зеркалит изображение?
тоже задавался этим вопросом. У меня Alfawise LS02 тоже с двумя камерами, он не зеркалит.
+
avatar
0
А товарищ Ваш смотрю довольно часто присутствует в роликах, начинающий актер ютуба)))
+
avatar
  • bdos
  • 06 февраля 2021, 11:47
0
Это же Михаил
+
avatar
  • nemoi13
  • 07 февраля 2021, 09:27
+1
Всё вроде хорошо. Кроме MiniUSB. Я понимаю что это вроде надежный разъём. Но весь мир массово переходит на Type-C. Почему бы и в региках его уже не начать ставить массово? Удобно же.
+
avatar
  • mugalem
  • 07 февраля 2021, 19:37
+2


www.youtube.com/watch?v=0waYaOLOEaI

У меня такой же. Неплохо снимает. В оригинале качество огонь. Просто ютуб сжимает )))

Только зарегистрированные и авторизованные пользователи могут оставлять комментарии.